<?xml version="1.0" standalone="no"?>
<!DOCTYPE svg PUBLIC "-//W3C//DTD SVG 1.1//EN" "http://www.w3.org/Graphics/SVG/1.1/DTD/svg11.dtd" >
<svg xmlns="http://www.w3.org/2000/svg">
<metadata>Generated by IcoMoon</metadata>
<defs>
<font id="icomoon" horiz-adv-x="1024">
<font-face units-per-em="1024" ascent="960" descent="-64" />
<missing-glyph horiz-adv-x="1024" />
<glyph unicode="&#x20;" horiz-adv-x="512" d="" />
<glyph unicode="&#xe600;" glyph-name="home" d="M1017.395 337.152l-452.045 499.61c-14.029 15.514-32.973 24.064-53.35 24.064 0 0 0 0 0 0-20.326 0-39.27-8.55-53.35-24.064l-452.045-499.61c-9.472-10.496-8.653-26.675 1.792-36.147 4.915-4.454 11.059-6.605 17.152-6.605 6.963 0 13.926 2.816 18.995 8.448l109.005 120.474v-410.522c0-42.342 34.458-76.8 76.8-76.8h563.2c42.342 0 76.8 34.458 76.8 76.8v410.522l109.005-120.474c9.472-10.496 25.651-11.315 36.147-1.792s11.315 25.651 1.792 36.147zM614.4-12.8h-204.8v230.4c0 14.131 11.469 25.6 25.6 25.6h153.6c14.131 0 25.6-11.469 25.6-25.6v-230.4zM819.2 12.8c0-14.131-11.469-25.6-25.6-25.6h-128v230.4c0 42.342-34.458 76.8-76.8 76.8h-153.6c-42.342 0-76.8-34.458-76.8-76.8v-230.4h-128c-14.131 0-25.6 11.469-25.6 25.6v467.098l291.84 322.56c4.198 4.659 9.677 7.219 15.36 7.219s11.162-2.56 15.36-7.219l291.84-322.56v-467.098z" />
<glyph unicode="&#xe601;" glyph-name="brush2" d="M179.2 89.6c-6.758 0-13.363 2.714-18.074 7.526s-7.526 11.366-7.526 18.074 2.714 13.312 7.526 18.074c4.762 4.762 11.366 7.526 18.074 7.526s13.312-2.714 18.074-7.526c4.762-4.762 7.526-11.366 7.526-18.074s-2.714-13.363-7.526-18.074c-4.762-4.762-11.366-7.526-18.074-7.526zM954.675 476.723l-414.003 414.003c-14.49 14.49-33.741 22.426-54.323 22.426s-39.834-7.987-54.323-22.426l-260.403-260.403c-27.597-27.597-35.584-76.595-18.125-111.565l82.227-164.403c2.509-5.069 2.97-9.882 1.229-13.568s-5.683-6.502-11.213-7.782c-4.403-1.075-109.005-26.675-173.363-91.034-33.843-33.843-52.48-78.848-52.48-126.72s18.637-92.877 52.48-126.72c33.843-33.843 78.848-52.48 126.72-52.48 0 0 0 0 0 0 47.872 0 92.877 18.637 126.72 52.48 64.358 64.358 90.010 168.96 91.034 173.363 1.075 4.557 4.198 12.237 12.749 12.237 2.714 0 5.632-0.768 8.653-2.304l164.403-82.227c12.186-6.093 26.47-9.318 41.37-9.318 26.778 0 52.992 10.24 70.144 27.392l260.403 260.403c29.952 29.952 29.952 78.643 0 108.595zM658.125 143.923c-7.526-7.526-20.89-12.39-33.946-12.39-7.014 0-13.414 1.331-18.483 3.891l-164.403 82.227c-10.189 5.12-20.838 7.68-31.539 7.68-30.003 0-55.142-20.685-62.515-51.507-0.205-0.922-23.45-95.13-77.466-149.094-24.166-24.166-56.32-37.478-90.522-37.478s-66.355 13.312-90.522 37.478c-24.166 24.166-37.478 56.32-37.478 90.522s13.312 66.355 37.478 90.522c54.016 54.016 148.173 77.261 149.094 77.466 20.685 4.966 37.325 18.074 45.67 35.942s7.68 39.066-1.843 58.112l-82.227 164.403c-7.68 15.309-3.584 40.346 8.499 52.429l48.077 48.077 450.202-450.202-48.077-48.077zM918.477 404.275l-176.077-176.077-450.202 450.202 176.077 176.077c4.813 4.813 11.213 7.424 18.125 7.424s13.312-2.662 18.125-7.424l414.003-414.003c9.984-9.984 9.984-26.214 0-36.198z" />
<glyph unicode="&#xe602;" glyph-name="cog" d="M390.707-48.742c-2.099 0-4.25 0.256-6.4 0.819-45.978 11.827-90.163 30.054-131.277 54.221-11.93 7.014-16.128 22.221-9.523 34.355 8.141 14.95 12.442 31.846 12.442 48.998 0 56.474-45.926 102.4-102.4 102.4-17.101 0-34.048-4.301-48.998-12.442-12.134-6.605-27.341-2.406-34.355 9.523-24.166 41.165-42.394 85.299-54.221 131.277-3.328 13.005 3.942 26.368 16.64 30.618 41.677 14.029 69.734 53.043 69.734 97.024s-28.006 82.995-69.734 97.024c-12.698 4.301-19.968 17.613-16.64 30.618 11.827 45.978 30.054 90.163 54.221 131.277 7.014 11.93 22.221 16.128 34.355 9.523 14.899-8.141 31.846-12.442 48.998-12.442 56.474 0 102.4 45.926 102.4 102.4 0 17.101-4.301 34.048-12.442 48.998-6.605 12.134-2.406 27.341 9.523 34.355 41.165 24.166 85.299 42.394 131.277 54.221 13.005 3.328 26.368-3.942 30.618-16.64 14.029-41.677 53.043-69.734 97.024-69.734s82.995 28.006 97.024 69.734c4.301 12.698 17.664 19.968 30.618 16.64 45.978-11.827 90.163-30.054 131.277-54.221 11.93-7.014 16.128-22.221 9.523-34.355-8.141-14.95-12.442-31.846-12.442-48.998 0-56.474 45.926-102.4 102.4-102.4 17.101 0 34.048 4.301 48.998 12.442 12.134 6.605 27.341 2.406 34.355-9.523 24.166-41.165 42.394-85.299 54.221-131.277 3.328-13.005-3.942-26.368-16.64-30.618-41.677-14.029-69.734-53.043-69.734-97.024s28.006-82.995 69.734-97.024c12.698-4.301 19.968-17.613 16.64-30.618-11.827-45.978-30.054-90.163-54.221-131.277-7.014-11.93-22.221-16.128-34.355-9.523-14.95 8.141-31.846 12.442-48.998 12.442-56.474 0-102.4-45.926-102.4-102.4 0-17.101 4.301-34.048 12.442-48.998 6.605-12.134 2.406-27.341-9.523-34.355-41.165-24.166-85.299-42.394-131.277-54.221-13.005-3.328-26.368 3.942-30.618 16.64-14.029 41.677-53.043 69.734-97.024 69.734s-82.995-28.006-97.024-69.734c-3.584-10.598-13.517-17.459-24.269-17.459zM512 89.6c57.702 0 109.67-32.154 135.936-82.022 26.624 8.243 52.531 18.893 77.312 31.846-5.53 16.077-8.397 33.075-8.397 50.176 0 84.685 68.915 153.6 153.6 153.6 17.101 0 34.099-2.867 50.176-8.397 12.954 24.781 23.654 50.637 31.846 77.312-49.869 26.214-82.022 78.182-82.022 135.936s32.154 109.67 82.022 135.936c-8.243 26.624-18.893 52.531-31.846 77.312-16.077-5.53-33.075-8.397-50.176-8.397-84.685 0-153.6 68.915-153.6 153.6 0 17.101 2.867 34.099 8.397 50.176-24.781 12.954-50.637 23.654-77.312 31.846-26.214-49.869-78.182-82.022-135.936-82.022s-109.67 32.154-135.936 82.022c-26.624-8.192-52.531-18.893-77.312-31.846 5.53-16.077 8.397-33.075 8.397-50.176 0-84.685-68.915-153.6-153.6-153.6-17.101 0-34.099 2.867-50.176 8.397-12.954-24.781-23.654-50.637-31.846-77.312 49.869-26.214 82.022-78.182 82.022-135.936s-32.154-109.67-82.022-135.936c8.192-26.624 18.893-52.531 31.846-77.312 16.077 5.53 33.075 8.397 50.176 8.397 84.685 0 153.6-68.915 153.6-153.6 0-17.101-2.867-34.099-8.397-50.176 24.781-12.954 50.637-23.654 77.312-31.846 26.214 49.869 78.182 82.022 135.936 82.022zM512 294.4c-84.685 0-153.6 68.915-153.6 153.6s68.915 153.6 153.6 153.6 153.6-68.915 153.6-153.6-68.915-153.6-153.6-153.6zM512 550.4c-56.474 0-102.4-45.926-102.4-102.4s45.926-102.4 102.4-102.4c56.474 0 102.4 45.926 102.4 102.4s-45.926 102.4-102.4 102.4z" />
<glyph unicode="&#xe603;" glyph-name="hammer-wrench" d="M952.115 219.802l-232.192 211.046 27.136 30.208c22.938-8.653 47.104-13.056 72.090-13.056 112.947 0 204.8 91.853 204.8 204.8 0 32.717-7.936 65.28-22.886 94.157-3.738 7.27-10.752 12.288-18.79 13.517s-16.23-1.434-22.016-7.219l-100.454-100.454h-40.602v40.602l100.454 100.454c5.786 5.786 8.448 13.926 7.219 22.016s-6.246 15.053-13.517 18.79c-28.877 15.002-61.44 22.886-94.157 22.886-112.947 0-204.8-91.853-204.8-204.8 0-24.986 4.403-49.152 13.056-72.090l-36.352-32.717-126.362 114.893c-4.864 4.403-7.578 10.291-7.731 16.64s2.304 12.339 6.963 16.998l117.402 117.402c7.322 7.322 9.523 18.33 5.53 27.904s-13.312 15.821-23.654 15.821c-2.099 0-52.582-0.051-107.11-3.226-104.141-6.144-129.536-17.971-141.414-29.85l-179.2-179.2c-4.813-4.813-7.475-11.315-7.475-18.125v-25.6h-25.6c-6.81 0-13.312-2.714-18.125-7.475l-51.2-51.2c-9.984-9.984-9.984-26.214 0-36.198l102.4-102.4c9.984-9.984 26.214-9.984 36.198 0l51.2 51.2c4.813 4.813 7.475 11.315 7.475 18.125v25.6h25.6c6.81 0 13.312 2.714 18.125 7.475l40.602 40.602c4.506 4.506 10.342 6.963 16.435 6.963 6.502 0 12.595-2.765 17.152-7.731l108.39-119.245-230.963-207.565c-15.411-13.824-24.166-32.717-24.73-53.146s7.219-39.782 21.862-54.426l55.603-55.603c14.182-14.182 32.717-21.914 52.378-21.914 0.666 0 1.331 0 1.997 0.051 20.429 0.563 39.322 9.318 53.146 24.73l201.37 224.051 203.981-224.358c14.182-15.565 34.253-24.525 55.040-24.525 19.814 0 38.502 7.782 52.634 21.965l55.603 55.603c14.643 14.643 22.426 33.946 21.914 54.374s-9.165 39.373-24.474 53.299zM681.216 585.267c-10.394 21.146-15.616 43.878-15.616 67.533 0 84.685 68.915 153.6 153.6 153.6 12.442 0 24.525-1.434 36.301-4.301l-80.026-80.026c-4.813-4.813-7.475-11.315-7.475-18.125v-76.8c0-14.131 11.469-25.6 25.6-25.6h76.8c6.81 0 13.312 2.714 18.125 7.475l80.026 80.026c2.867-11.776 4.301-23.91 4.301-36.301 0-84.685-68.915-153.6-153.6-153.6-23.706 0-46.438 5.274-67.533 15.616-10.291 5.069-22.682 2.662-30.31-5.888l-39.27-43.674-52.941 48.128 46.182 41.523c8.499 7.68 10.906 20.019 5.888 30.31zM331.11 605.44c-19.814 0-38.502-7.782-52.634-21.965l-33.075-33.075h-40.602c-14.131 0-25.6-11.469-25.6-25.6v-40.602l-25.6-25.6-66.202 66.202 25.6 25.6h40.602c14.131 0 25.6 11.469 25.6 25.6v40.602l171.008 171.008c3.226 1.843 23.552 10.906 113.818 15.923 12.493 0.717 24.73 1.229 36.147 1.638l-72.448-72.448c-14.643-14.643-22.426-33.946-21.914-54.374s9.165-39.373 24.474-53.299l44.646-40.602-48.128-48.128-40.602 44.646c-14.182 15.565-34.253 24.525-55.040 24.525zM348.006 93.594c-4.352-4.864-10.189-7.629-16.435-7.782s-12.237 2.304-16.845 6.912l-55.603 55.603c-4.608 4.608-7.066 10.598-6.912 16.845s2.918 12.083 7.782 16.435l231.168 207.77 61.696-67.84-204.851-227.891zM918.477 148.275l-55.603-55.603c-4.506-4.506-10.342-6.963-16.435-6.963-6.502 0-12.595 2.765-17.152 7.731l-368.026 404.838 51.61 51.61 404.838-368.026c4.864-4.403 7.578-10.291 7.731-16.64s-2.304-12.339-6.963-16.998z" />
<glyph unicode="&#xe604;" glyph-name="files" d="M844.8 755.2h-25.6v25.6c0 42.342-34.458 76.8-76.8 76.8h-25.6v25.6c0 42.342-34.458 76.8-76.8 76.8h-384c-6.81 0-13.312-2.714-18.125-7.475l-179.2-179.2c-4.813-4.813-7.475-11.315-7.475-18.125v-537.6c0-42.342 34.458-76.8 76.8-76.8h25.6v-25.6c0-42.342 34.458-76.8 76.8-76.8h25.6v-25.6c0-42.342 34.458-76.8 76.8-76.8h512c42.342 0 76.8 34.458 76.8 76.8v665.6c0 42.342-34.458 76.8-76.8 76.8zM256 898.202v-117.402c0-14.131-11.469-25.6-25.6-25.6h-117.402l143.002 143.002zM102.4 217.6v486.4h128c42.342 0 76.8 34.458 76.8 76.8v128h332.8c14.131 0 25.6-11.469 25.6-25.6v-665.6c0-14.131-11.469-25.6-25.6-25.6h-512c-14.131 0-25.6 11.469-25.6 25.6zM204.8 115.2v25.6h435.2c42.342 0 76.8 34.458 76.8 76.8v588.8h25.6c14.131 0 25.6-11.469 25.6-25.6v-665.6c0-14.131-11.469-25.6-25.6-25.6h-512c-14.131 0-25.6 11.469-25.6 25.6zM870.4 12.8c0-14.131-11.469-25.6-25.6-25.6h-512c-14.131 0-25.6 11.469-25.6 25.6v25.6h435.2c42.342 0 76.8 34.458 76.8 76.8v588.8h25.6c14.131 0 25.6-11.469 25.6-25.6v-665.6z" />
<glyph unicode="&#xe605;" glyph-name="profile" d="M947.2 89.6h-870.4c-42.342 0-76.8 34.458-76.8 76.8v563.2c0 42.342 34.458 76.8 76.8 76.8h870.4c42.342 0 76.8-34.458 76.8-76.8v-563.2c0-42.342-34.458-76.8-76.8-76.8zM76.8 755.2c-14.131 0-25.6-11.469-25.6-25.6v-563.2c0-14.131 11.469-25.6 25.6-25.6h870.4c14.131 0 25.6 11.469 25.6 25.6v563.2c0 14.131-11.469 25.6-25.6 25.6h-870.4zM435.251 243.2c0 0 0 0-0.051 0h-256c-14.131 0-25.6 11.469-25.6 25.6 0 3.379 0.563 33.843 19.866 64.768 18.022 28.826 55.859 63.232 133.734 63.232s115.661-34.406 133.734-63.232c17.306-27.699 19.558-54.989 19.866-62.822 0.051-0.614 0.051-1.28 0.051-1.946 0-14.131-11.469-25.6-25.6-25.6zM210.79 294.4h192.819c-1.792 4.403-4.147 9.062-7.168 13.67-16.486 24.934-46.49 37.53-89.242 37.53s-72.755-12.646-89.242-37.53c-3.021-4.608-5.376-9.216-7.168-13.67zM844.8 550.4h-256c-14.131 0-25.6 11.469-25.6 25.6s11.469 25.6 25.6 25.6h256c14.131 0 25.6-11.469 25.6-25.6s-11.469-25.6-25.6-25.6zM793.6 448h-204.8c-14.131 0-25.6 11.469-25.6 25.6s11.469 25.6 25.6 25.6h204.8c14.131 0 25.6-11.469 25.6-25.6s-11.469-25.6-25.6-25.6zM793.6 345.6h-204.8c-14.131 0-25.6 11.469-25.6 25.6s11.469 25.6 25.6 25.6h204.8c14.131 0 25.6-11.469 25.6-25.6s-11.469-25.6-25.6-25.6zM307.2 448c-56.474 0-102.4 45.926-102.4 102.4s45.926 102.4 102.4 102.4 102.4-45.926 102.4-102.4c0-56.474-45.926-102.4-102.4-102.4zM307.2 601.6c-28.211 0-51.2-22.989-51.2-51.2s22.989-51.2 51.2-51.2 51.2 22.989 51.2 51.2-22.989 51.2-51.2 51.2zM844.8 243.2h-256c-14.131 0-25.6 11.469-25.6 25.6s11.469 25.6 25.6 25.6h256c14.131 0 25.6-11.469 25.6-25.6s-11.469-25.6-25.6-25.6z" />
<glyph unicode="&#xe606;" glyph-name="window" d="M947.2 908.8h-870.4c-42.342 0-76.8-34.458-76.8-76.8v-768c0-42.342 34.458-76.8 76.8-76.8h870.4c42.342 0 76.8 34.458 76.8 76.8v768c0 42.342-34.458 76.8-76.8 76.8zM76.8 857.6h870.4c14.131 0 25.6-11.469 25.6-25.6v-128h-921.6v128c0 14.131 11.469 25.6 25.6 25.6zM947.2 38.4h-870.4c-14.131 0-25.6 11.469-25.6 25.6v588.8h921.6v-588.8c0-14.131-11.469-25.6-25.6-25.6zM153.6 780.8c0-14.131-11.469-25.6-25.6-25.6s-25.6 11.469-25.6 25.6c0 14.131 11.469 25.6 25.6 25.6s25.6-11.469 25.6-25.6zM256 780.8c0-14.131-11.469-25.6-25.6-25.6s-25.6 11.469-25.6 25.6c0 14.131 11.469 25.6 25.6 25.6s25.6-11.469 25.6-25.6zM358.4 780.8c0-14.131-11.469-25.6-25.6-25.6s-25.6 11.469-25.6 25.6c0 14.131 11.469 25.6 25.6 25.6s25.6-11.469 25.6-25.6z" />
<glyph unicode="&#xe607;" glyph-name="bubble-question" d="M25.6-12.8c-11.52 0-21.606 7.68-24.678 18.79s1.638 22.886 11.52 28.774c86.579 51.917 122.47 127.437 135.219 162.765-94.106 72.038-147.661 171.725-147.661 276.070 0 52.685 13.21 103.731 39.322 151.757 24.883 45.773 60.416 86.784 105.523 121.907 91.494 71.168 212.787 110.387 341.555 110.387s250.061-39.219 341.555-110.387c45.107-35.072 80.64-76.083 105.523-121.907 26.112-47.974 39.322-99.021 39.322-151.757s-13.21-103.731-39.322-151.757c-24.883-45.773-60.416-86.784-105.523-121.907-91.494-71.168-212.787-110.387-341.555-110.387-52.89 0-104.806 6.605-154.419 19.712-21.965-14.643-63.027-40.602-112.077-65.024-76.186-37.888-141.517-57.088-194.253-57.088zM486.4 806.4c-239.974 0-435.2-149.299-435.2-332.8 0-92.928 51.456-182.374 141.107-245.35 8.806-6.195 12.8-17.203 10.035-27.597-5.99-22.323-26.368-83.61-80.896-142.746 66.662 23.347 138.445 63.846 191.437 100.301 6.298 4.352 14.182 5.632 21.555 3.533 48.538-13.875 99.686-20.941 151.962-20.941 239.974 0 435.2 149.299 435.2 332.8s-195.226 332.8-435.2 332.8zM486.4 345.6c-14.131 0-25.6 11.469-25.6 25.6v102.4c0 14.131 11.469 25.6 25.6 25.6 42.342 0 76.8 34.458 76.8 76.8s-34.458 76.8-76.8 76.8c-42.342 0-76.8-34.458-76.8-76.8 0-14.131-11.469-25.6-25.6-25.6s-25.6 11.469-25.6 25.6c0 70.554 57.446 128 128 128s128-57.446 128-128c0-61.798-44.032-113.51-102.4-125.44v-79.36c0-14.131-11.469-25.6-25.6-25.6zM486.4 243.2c-6.758 0-13.363 2.714-18.074 7.526s-7.526 11.366-7.526 18.074c0 6.758 2.714 13.363 7.526 18.074s11.366 7.526 18.074 7.526 13.363-2.714 18.074-7.526c4.762-4.762 7.526-11.366 7.526-18.074s-2.714-13.312-7.526-18.074c-4.762-4.762-11.366-7.526-18.074-7.526z" />
<glyph unicode="&#xe608;" glyph-name="pie-chart" d="M435.2-64c-116.224 0-225.536 45.261-307.712 127.488s-127.488 191.488-127.488 307.712c0 116.224 45.261 225.536 127.488 307.712s191.488 127.488 307.712 127.488c14.131 0 25.6-11.469 25.6-25.6v-384h384c14.131 0 25.6-11.469 25.6-25.6 0-116.224-45.261-225.536-127.488-307.712s-191.488-127.488-307.712-127.488zM409.6 754.381c-199.834-13.21-358.4-180.019-358.4-383.181 0-211.763 172.237-384 384-384 203.11 0 369.92 158.566 383.181 358.4h-383.181c-14.131 0-25.6 11.469-25.6 25.6v383.181zM947.2 448h-409.6c-14.131 0-25.6 11.469-25.6 25.6v409.6c0 14.131 11.469 25.6 25.6 25.6 116.224 0 225.536-45.261 307.712-127.488s127.488-191.488 127.488-307.712c0-14.131-11.469-25.6-25.6-25.6zM563.2 499.2h357.581c-12.646 191.386-166.195 344.883-357.581 357.581v-357.581z" />
<glyph unicode="&#xe609;" glyph-name="puzzle" d="M960.666 700.16c-7.526 4.659-16.947 5.069-24.883 1.126-0.41-0.205-42.086-20.941-90.368-36.659-80.691-26.317-109.568-16.691-118.221-11.315-3.123 1.946-10.394 6.4-10.394 25.088 0 16.128 8.090 30.054 18.278 47.667 14.643 25.293 32.922 56.781 32.922 105.933 0 34.253-23.706 67.942-65.024 92.416-38.758 22.938-88.371 35.584-139.776 35.584s-101.018-12.646-139.776-35.584c-41.318-24.474-65.024-58.163-65.024-92.416 0-49.152 18.278-80.64 32.922-105.933 10.189-17.613 18.278-31.539 18.278-47.667 0-13.722-5.069-18.944-9.984-22.272-10.189-6.81-44.954-19.61-147.763 7.68-60.416 16.026-113.459 38.042-114.022 38.246-6.861 2.867-14.694 2.611-21.35-0.768s-11.52-9.421-13.363-16.691c-0.614-2.56-15.667-63.078-25.856-131.226-19.61-131.072-3.277-170.035 10.701-187.955 9.984-12.8 24.218-19.866 39.987-19.866 34.765 0 57.702 26.624 79.872 52.326s43.162 50.074 73.728 50.074c30.566 0 76.8-61.286 76.8-153.6s-46.234-153.6-76.8-153.6c-30.566 0-51.507 24.32-73.728 50.074s-45.158 52.326-79.872 52.326c-17.254 0-32.41-7.629-42.65-21.402-12.646-17.050-27.238-52.224-7.322-160.768 10.24-55.808 24.832-104.704 25.446-106.752 3.226-10.803 13.21-18.227 24.525-18.227h716.8c70.554 0 128 57.446 128 128v614.4c0 8.858-4.608 17.101-12.134 21.76zM921.6 64c0-42.342-34.458-76.8-76.8-76.8h-697.395c-5.478 20.275-14.182 54.938-20.429 91.085-16.384 95.027-1.126 112.486 0.102 113.613 0.154 0.051 0.461 0.051 0.973 0.051 11.264 0 26.47-17.562 41.114-34.611 26.061-30.208 58.47-67.789 112.486-67.789 34.253 0 67.942 23.706 92.416 65.024 22.938 38.758 35.584 88.371 35.584 139.776s-12.646 101.018-35.584 139.776c-24.474 41.318-58.163 65.024-92.416 65.024-54.016 0-86.426-37.581-112.486-67.789-14.438-16.742-29.389-34.099-40.653-34.56-2.765 3.328-17.92 27.546-1.587 141.926 5.786 40.55 13.773 79.821 19.354 105.114 22.221-8.243 55.501-19.712 91.904-29.389 91.955-24.474 154.061-24.781 189.85-0.922 14.95 9.984 32.819 29.338 32.819 64.87 0 29.901-12.8 51.968-25.19 73.318-13.363 23.091-26.010 44.851-26.010 80.282 0 30.566 61.286 76.8 153.6 76.8s153.6-46.234 153.6-76.8c0-35.379-12.646-57.19-26.010-80.282-12.39-21.35-25.19-43.418-25.19-73.318 0-39.014 18.842-58.88 34.662-68.659 33.075-20.429 85.965-18.381 161.587 6.4 22.426 7.322 43.213 15.514 59.75 22.528v-574.669z" />
<glyph unicode="&#xe60a;" glyph-name="bullhorn" d="M992.717 801.331c-29.594 88.832-68.915 107.469-96.717 107.469-0.563 0-1.178 0-1.792-0.051-28.314-0.614-78.643-15.309-154.010-37.427-157.901-46.234-396.493-116.173-637.85-116.173-58.368 0-102.4-77.056-102.4-179.2s44.032-179.2 102.4-179.2c18.893 0 37.786-0.41 56.576-1.229l85.299-339.354c9.728-38.707 48.589-69.018 88.525-69.018h67.226c22.17 0 41.011 9.216 51.61 25.344s11.725 37.018 3.072 57.395l-131.942 309.658c160.563-23.654 308.326-66.97 417.485-98.918 75.366-22.067 125.696-36.813 154.010-37.427 0.614 0 1.178-0.051 1.792-0.051 27.75 0 67.072 18.637 96.717 107.469 20.173 60.57 31.283 140.595 31.283 225.331s-11.11 164.762-31.283 225.331zM819.2 576c0 26.266 1.126 51.968 3.277 76.595 26.266-2.662 47.923-36.659 47.923-76.595s-21.606-73.984-47.923-76.595c-2.15 24.627-3.277 50.33-3.277 76.595zM51.2 576c0 78.131 30.31 128 51.2 128 58.112 0 115.917 3.891 172.442 10.445-12.134-38.81-18.842-86.886-18.842-138.445s6.656-99.635 18.842-138.445c-56.525 6.554-114.33 10.445-172.442 10.445-20.89 0-51.2 49.869-51.2 128zM407.603 49.869c2.099-4.915 1.946-8.192 1.331-9.114s-3.533-2.355-8.909-2.355h-67.226c-16.333 0-34.867 14.438-38.861 30.31l-81.306 323.533c17.152-1.382 34.253-3.021 51.2-4.966l143.77-337.408zM332.237 429.926c-15.565 35.174-25.037 89.498-25.037 146.074 0 57.446 9.216 110.746 24.986 146.022 163.072 24.218 312.115 67.84 422.4 100.198 21.248 6.246 41.523 12.186 59.955 17.357-5.274-11.008-10.394-23.706-15.258-38.246-20.173-60.57-31.283-140.595-31.283-225.331s11.11-164.762 31.283-225.331c4.864-14.541 9.984-27.238 15.258-38.246-18.432 5.171-38.707 11.11-59.955 17.357-110.336 32.307-259.328 75.981-422.4 100.198zM944.128 366.848c-19.098-57.344-39.834-72.448-48.128-72.448s-29.030 15.155-48.128 72.448c-8.038 24.064-14.49 51.661-19.2 81.715 24.883 2.867 48.282 16.947 65.331 39.68 17.818 23.757 27.597 54.938 27.597 87.757s-9.83 64.051-27.597 87.757c-17.050 22.733-40.448 36.813-65.331 39.68 4.762 30.003 11.213 57.651 19.2 81.715 19.098 57.344 39.834 72.499 48.128 72.499s29.030-15.155 48.128-72.448c18.483-55.501 28.672-129.741 28.672-209.152s-10.189-153.651-28.672-209.152z" />
<glyph unicode="&#xe60b;" glyph-name="link2" d="M546.918 294.502c-48.282 0-96.563 18.381-133.325 55.142-9.984 9.984-9.984 26.214 0 36.198s26.214 9.984 36.198 0c53.555-53.555 140.646-53.555 194.202 0l186.163 186.163c53.555 53.555 53.555 140.646 0 194.202s-140.646 53.555-194.202 0l-157.082-157.082c-9.984-9.984-26.214-9.984-36.198 0s-9.984 26.214 0 36.198l157.082 157.082c73.523 73.523 193.126 73.523 266.598 0s73.523-193.126 0-266.598l-186.163-186.163c-36.762-36.762-85.043-55.142-133.325-55.142zM239.718-12.698c-48.282 0-96.563 18.381-133.325 55.142-73.523 73.523-73.523 193.126 0 266.598l186.163 186.163c73.523 73.523 193.126 73.523 266.598 0 9.984-9.984 9.984-26.214 0-36.198s-26.214-9.984-36.198 0c-53.555 53.555-140.646 53.555-194.202 0l-186.163-186.163c-53.555-53.555-53.555-140.646 0-194.202s140.646-53.555 194.202 0l157.082 157.082c9.984 9.984 26.214 9.984 36.198 0s9.984-26.214 0-36.198l-157.082-157.082c-36.762-36.762-85.043-55.142-133.325-55.142z" />
<glyph unicode="&#xe60c;" glyph-name="menu" d="M896 652.8h-768c-14.131 0-25.6 11.469-25.6 25.6s11.469 25.6 25.6 25.6h768c14.131 0 25.6-11.469 25.6-25.6s-11.469-25.6-25.6-25.6zM896 396.8h-768c-14.131 0-25.6 11.469-25.6 25.6s11.469 25.6 25.6 25.6h768c14.131 0 25.6-11.469 25.6-25.6s-11.469-25.6-25.6-25.6zM896 140.8h-768c-14.131 0-25.6 11.469-25.6 25.6s11.469 25.6 25.6 25.6h768c14.131 0 25.6-11.469 25.6-25.6s-11.469-25.6-25.6-25.6z" />
<glyph unicode="&#xe60d;" glyph-name="check" d="M281.6 64c-6.554 0-13.107 2.509-18.125 7.475l-256 256c-9.984 9.984-9.984 26.214 0 36.198s26.214 9.984 36.198 0l237.875-237.875 698.675 698.675c9.984 9.984 26.214 9.984 36.198 0s9.984-26.214 0-36.198l-716.8-716.8c-5.018-5.018-11.571-7.475-18.125-7.475z" />
<glyph unicode="&#xe60e;" glyph-name="cross2" d="M548.198 422.4l442.675 442.675c9.984 9.984 9.984 26.214 0 36.198s-26.214 9.984-36.198 0l-442.675-442.675-442.675 442.675c-9.984 9.984-26.214 9.984-36.198 0s-9.984-26.214 0-36.198l442.675-442.675-442.675-442.675c-9.984-9.984-9.984-26.214 0-36.198 5.018-5.018 11.571-7.475 18.125-7.475s13.107 2.509 18.125 7.475l442.675 442.675 442.675-442.675c5.018-5.018 11.571-7.475 18.125-7.475s13.107 2.509 18.125 7.475c9.984 9.984 9.984 26.214 0 36.198l-442.675 442.675z" />
<glyph unicode="&#xe60f;" glyph-name="chevron-down" d="M0 652.8c0 6.554 2.509 13.107 7.475 18.125 9.984 9.984 26.214 9.984 36.198 0l442.675-442.675 442.675 442.675c9.984 9.984 26.214 9.984 36.198 0s9.984-26.214 0-36.198l-460.8-460.8c-9.984-9.984-26.214-9.984-36.198 0l-460.8 460.8c-5.018 5.018-7.475 11.571-7.475 18.125z" />
<glyph unicode="&#xe610;" glyph-name="chevron-left" d="M716.8-64c6.554 0 13.107 2.509 18.125 7.475 9.984 9.984 9.984 26.214 0 36.198l-442.675 442.675 442.675 442.675c9.984 9.984 9.984 26.214 0 36.198s-26.214 9.984-36.198 0l-460.8-460.8c-9.984-9.984-9.984-26.214 0-36.198l460.8-460.8c5.018-5.018 11.571-7.475 18.125-7.475z" />
<glyph unicode="&#xe611;" glyph-name="backward-circle" d="M486.4-64c-129.946 0-252.058 50.586-343.962 142.438s-142.438 214.016-142.438 343.91c0 129.946 50.586 252.058 142.438 343.962s214.016 142.49 343.962 142.49c129.946 0 252.058-50.586 343.962-142.49s142.438-214.016 142.438-343.962-50.586-252.058-142.438-343.91c-91.853-91.853-214.016-142.438-343.962-142.438zM486.4 857.6c-239.974 0-435.2-195.226-435.2-435.2s195.226-435.2 435.2-435.2c239.974 0 435.2 195.226 435.2 435.2s-195.226 435.2-435.2 435.2zM435.2 192c-6.656 0-13.21 2.611-18.125 7.526l-204.8 204.8c-9.984 9.984-9.984 26.214 0 36.198l204.8 204.8c7.322 7.322 18.33 9.523 27.904 5.53s15.821-13.312 15.821-23.654v-409.6c0-10.342-6.246-19.712-15.821-23.654-3.174-1.331-6.502-1.946-9.779-1.946zM266.598 422.4l143.002-143.002v286.003l-143.002-143.002zM691.2 192c-6.656 0-13.21 2.611-18.125 7.526l-204.8 204.8c-9.984 9.984-9.984 26.214 0 36.198l204.8 204.8c7.322 7.322 18.33 9.523 27.904 5.53s15.821-13.312 15.821-23.654v-409.6c0-10.342-6.246-19.712-15.821-23.654-3.174-1.331-6.502-1.946-9.779-1.946zM522.598 422.4l143.002-143.002v286.003l-143.002-143.002z" />
<glyph unicode="&#xe612;" glyph-name="play-circle" d="M486.4-64c-129.946 0-252.058 50.586-343.962 142.438s-142.438 214.016-142.438 343.91c0 129.946 50.586 252.058 142.438 343.962s214.016 142.49 343.962 142.49c129.946 0 252.058-50.586 343.962-142.49s142.438-214.016 142.438-343.962-50.586-252.058-142.438-343.91c-91.853-91.853-214.016-142.438-343.962-142.438zM486.4 857.6c-239.974 0-435.2-195.226-435.2-435.2s195.226-435.2 435.2-435.2c239.974 0 435.2 195.226 435.2 435.2s-195.226 435.2-435.2 435.2zM332.8 140.8c-4.25 0-8.55 1.075-12.39 3.226-8.141 4.506-13.21 13.107-13.21 22.374v512c0 9.318 5.069 17.869 13.21 22.374s18.074 4.25 25.958-0.666l409.6-256c7.475-4.659 12.032-12.902 12.032-21.709s-4.557-17.050-12.032-21.709l-409.6-256c-4.147-2.611-8.858-3.891-13.568-3.891zM358.4 632.218v-419.635l335.718 209.818-335.718 209.818z" />
<glyph unicode="&#xe613;" glyph-name="pause-circle" d="M486.4-64c-129.946 0-252.058 50.586-343.962 142.438s-142.438 214.016-142.438 343.91c0 129.946 50.586 252.058 142.438 343.962s214.016 142.49 343.962 142.49c129.946 0 252.058-50.586 343.962-142.49s142.438-214.016 142.438-343.962-50.586-252.058-142.438-343.91c-91.853-91.853-214.016-142.438-343.962-142.438zM486.4 857.6c-239.974 0-435.2-195.226-435.2-435.2s195.226-435.2 435.2-435.2c239.974 0 435.2 195.226 435.2 435.2s-195.226 435.2-435.2 435.2zM384 192h-51.2c-42.342 0-76.8 34.458-76.8 76.8v307.2c0 42.342 34.458 76.8 76.8 76.8h51.2c42.342 0 76.8-34.458 76.8-76.8v-307.2c0-42.342-34.458-76.8-76.8-76.8zM332.8 601.6c-14.131 0-25.6-11.469-25.6-25.6v-307.2c0-14.131 11.469-25.6 25.6-25.6h51.2c14.131 0 25.6 11.469 25.6 25.6v307.2c0 14.131-11.469 25.6-25.6 25.6h-51.2zM640 192h-51.2c-42.342 0-76.8 34.458-76.8 76.8v307.2c0 42.342 34.458 76.8 76.8 76.8h51.2c42.342 0 76.8-34.458 76.8-76.8v-307.2c0-42.342-34.458-76.8-76.8-76.8zM588.8 601.6c-14.131 0-25.6-11.469-25.6-25.6v-307.2c0-14.131 11.469-25.6 25.6-25.6h51.2c14.131 0 25.6 11.469 25.6 25.6v307.2c0 14.131-11.469 25.6-25.6 25.6h-51.2z" />
<glyph unicode="&#xe614;" glyph-name="forward-circle" d="M486.4-64c-129.946 0-252.058 50.586-343.962 142.438s-142.438 214.016-142.438 343.91c0 129.946 50.586 252.058 142.438 343.962s214.016 142.49 343.962 142.49c129.946 0 252.058-50.586 343.962-142.49s142.438-214.016 142.438-343.962-50.586-252.058-142.438-343.91c-91.853-91.853-214.016-142.438-343.962-142.438zM486.4 857.6c-239.974 0-435.2-195.226-435.2-435.2s195.226-435.2 435.2-435.2c239.974 0 435.2 195.226 435.2 435.2s-195.226 435.2-435.2 435.2zM537.6 192c-3.277 0-6.605 0.614-9.779 1.946-9.574 3.942-15.821 13.312-15.821 23.654v409.6c0 10.342 6.246 19.712 15.821 23.654s20.582 1.792 27.904-5.53l204.8-204.8c9.984-9.984 9.984-26.214 0-36.198l-204.8-204.8c-4.915-4.915-11.469-7.475-18.125-7.475zM563.2 565.402v-286.003l143.002 143.002-143.002 143.002zM281.6 192c-3.277 0-6.605 0.614-9.779 1.946-9.574 3.942-15.821 13.312-15.821 23.654v409.6c0 10.342 6.246 19.712 15.821 23.654s20.582 1.792 27.904-5.53l204.8-204.8c9.984-9.984 9.984-26.214 0-36.198l-204.8-204.8c-4.915-4.915-11.469-7.475-18.125-7.475zM307.2 565.402v-286.003l143.002 143.002-143.002 143.002z" />
<glyph unicode="&#xe615;" glyph-name="cart" d="M409.6-64c-56.474 0-102.4 45.926-102.4 102.4s45.926 102.4 102.4 102.4 102.4-45.926 102.4-102.4-45.926-102.4-102.4-102.4zM409.6 89.6c-28.211 0-51.2-22.989-51.2-51.2s22.989-51.2 51.2-51.2 51.2 22.989 51.2 51.2-22.989 51.2-51.2 51.2zM768-64c-56.474 0-102.4 45.926-102.4 102.4s45.926 102.4 102.4 102.4 102.4-45.926 102.4-102.4-45.926-102.4-102.4-102.4zM768 89.6c-28.211 0-51.2-22.989-51.2-51.2s22.989-51.2 51.2-51.2 51.2 22.989 51.2 51.2-22.989 51.2-51.2 51.2zM897.997 731.29c-12.851 15.206-32.256 23.91-53.197 23.91h-626.842l-5.069 30.515c-6.707 40.294-43.981 71.885-84.89 71.885h-51.2c-14.131 0-25.6-11.469-25.6-25.6s11.469-25.6 25.6-25.6h51.2c15.718 0 31.795-13.619 34.355-29.133l85.555-513.382c6.707-40.294 43.981-71.885 84.89-71.885h512c14.131 0 25.6 11.469 25.6 25.6s-11.469 25.6-25.6 25.6h-512c-15.718 0-31.795 13.619-34.355 29.133l-12.646 75.776 510.208 44.39c39.68 3.43 75.93 36.915 82.483 76.237l34.355 206.182c3.43 20.685-1.946 41.267-14.797 56.422zM862.31 683.315l-34.355-206.182c-2.714-16.179-20.019-32.205-36.403-33.638l-514.202-44.698-50.893 305.254h618.291c5.99 0 11.008-2.048 14.131-5.786s4.352-9.011 3.379-14.899z" />
<glyph unicode="&#xe616;" glyph-name="cart-plus" d="M901.018 754.688c-13.875 2.765-27.341-6.195-30.106-20.070l-41.165-205.773c-3.277-16.435-21.453-32.666-38.144-34.099l-522.752-44.8-55.962 335.77c-6.707 40.294-43.981 71.885-84.89 71.885h-51.2c-14.131 0-25.6-11.469-25.6-25.6s11.469-25.6 25.6-25.6h51.2c15.718 0 31.795-13.619 34.355-29.133l85.555-513.382c6.707-40.294 43.981-71.885 84.89-71.885h512c14.131 0 25.6 11.469 25.6 25.6s-11.469 25.6-25.6 25.6h-512c-15.718 0-31.795 13.619-34.355 29.133l-21.146 126.925 518.707 44.442c39.322 3.379 76.237 36.352 83.968 75.059l41.165 205.773c2.765 13.875-6.195 27.341-20.070 30.106zM409.6-64c-56.474 0-102.4 45.926-102.4 102.4s45.926 102.4 102.4 102.4 102.4-45.926 102.4-102.4-45.926-102.4-102.4-102.4zM409.6 89.6c-28.211 0-51.2-22.989-51.2-51.2s22.989-51.2 51.2-51.2 51.2 22.989 51.2 51.2-22.989 51.2-51.2 51.2zM768-64c-56.474 0-102.4 45.926-102.4 102.4s45.926 102.4 102.4 102.4 102.4-45.926 102.4-102.4-45.926-102.4-102.4-102.4zM768 89.6c-28.211 0-51.2-22.989-51.2-51.2s22.989-51.2 51.2-51.2 51.2 22.989 51.2 51.2-22.989 51.2-51.2 51.2zM691.2 755.2h-128v128c0 14.131-11.469 25.6-25.6 25.6s-25.6-11.469-25.6-25.6v-128h-128c-14.131 0-25.6-11.469-25.6-25.6s11.469-25.6 25.6-25.6h128v-128c0-14.131 11.469-25.6 25.6-25.6s25.6 11.469 25.6 25.6v128h128c14.131 0 25.6 11.469 25.6 25.6s-11.469 25.6-25.6 25.6z" />
<glyph unicode="&#xe617;" glyph-name="shovel" d="M1001.523 783.923l-153.6 153.6c-14.49 14.49-33.792 22.477-54.323 22.477s-39.782-7.987-54.323-22.477c-14.49-14.49-22.477-33.792-22.477-54.323v-117.402l-204.8-204.8-7.475 7.475c-9.984 9.984-26.214 9.984-36.198 0l-37.888-37.888-99.277 99.277c-14.49 14.49-33.741 22.426-54.323 22.426s-39.834-7.987-54.323-22.426l-138.189-138.189c-52.019-52.019-84.275-107.469-84.275-222.925 0-105.37 50.381-257.638 52.531-264.090 2.56-7.629 8.55-13.619 16.179-16.179 6.451-2.15 158.771-52.531 264.090-52.531 115.405 0 170.854 32.256 222.925 84.275l138.189 138.189c14.49 14.49 22.426 33.741 22.426 54.323s-7.987 39.834-22.426 54.323l-99.277 99.277 37.888 37.888c4.813 4.813 7.475 11.315 7.475 18.125s-2.714 13.312-7.475 18.125l-7.475 7.475 204.8 204.8h117.402c20.531 0 39.782 7.987 54.323 22.477s22.477 33.792 22.477 54.323-7.987 39.782-22.477 54.323zM486.4 514.202l91.802-91.802-164.403-164.403c-9.626-9.626-22.477-14.899-36.198-14.899s-26.573 5.274-36.198 14.899l-19.405 19.405c-19.968 19.968-19.968 52.429 0 72.397l164.403 164.403zM657.715 230.912c9.984-9.984 9.984-26.214 0-36.198l-138.189-138.189c-44.954-44.954-88.013-69.325-186.675-69.325-80.742 0-197.786 34.202-235.622 45.978-11.776 37.837-45.978 154.778-45.978 235.622 0 98.662 24.371 141.773 69.325 186.675l138.189 138.189c9.984 9.984 26.214 9.984 36.198 0l99.277-99.277-108.39-108.39c-39.936-39.936-39.936-104.909 0-144.794l19.405-19.405c19.302-19.302 45.005-29.901 72.397-29.901s53.146 10.598 72.397 29.901l108.39 108.39 99.277-99.277zM548.198 524.8l194.202 194.202 40.602-40.602-194.202-194.202-40.602 40.602zM965.325 711.475c-4.813-4.813-11.264-7.475-18.125-7.475h-117.402l-61.798 61.798v117.402c0 6.861 2.662 13.261 7.526 18.125s11.264 7.475 18.074 7.475 13.261-2.662 18.125-7.475l153.6-153.6c4.813-4.813 7.475-11.264 7.475-18.125s-2.662-13.261-7.526-18.125z" />
<glyph unicode="&#xe618;" glyph-name="pencil3" d="M998.4 652.8c0 141.158-114.842 256-256 256-38.554 0-75.674-8.397-110.234-24.883-2.714-1.28-5.069-3.021-7.066-5.018v0l-540.826-540.826c-3.942-3.942-6.451-9.011-7.219-14.49l-51.2-358.4c-1.126-7.987 1.536-16.026 7.219-21.709 4.813-4.813 11.366-7.475 18.074-7.475 1.178 0 2.406 0.102 3.635 0.256l358.4 51.2c5.478 0.768 10.547 3.328 14.49 7.219l540.416 540.416c0 0 0.051 0.051 0.051 0.051l0.358 0.358c1.997 1.997 3.686 4.352 5.018 7.066 16.538 34.56 24.883 71.68 24.883 110.234zM947.2 652.8c0-29.44-6.093-57.805-18.125-84.326l-58.88-58.88c-5.376 147.046-123.955 265.626-271.002 271.002l58.88 58.88c26.522 12.032 54.886 18.125 84.326 18.125 112.947 0 204.8-91.853 204.8-204.8zM102.656 140.8l21.658 151.757c9.677 1.229 19.456 1.843 29.286 1.843 127.027 0 230.4-103.373 230.4-230.4 0-9.779-0.614-19.61-1.843-29.286l-151.757-21.658c-0.154 70.349-57.344 127.59-127.744 127.744zM543.795 725.197c14.746 2.918 29.85 4.403 45.005 4.403 54.323 0 104.294-18.893 143.718-50.483l-398.848-398.848c-46.387 38.656-105.318 62.72-169.728 65.075l379.802 379.802zM369.92 244.122l398.848 398.848c31.539-39.424 50.483-89.395 50.483-143.718 0-15.155-1.485-30.259-4.403-45.005l-379.802-379.802c-2.355 64.41-26.419 123.341-65.075 169.728zM95.283 89.242c2.355 0.205 4.71 0.358 7.117 0.358 42.342 0 76.8-34.458 76.8-76.8 0-2.406-0.102-4.762-0.358-7.117l-97.485-13.926 13.926 97.485z" />
<glyph unicode="&#xe619;" glyph-name="cli" d="M947.2 38.4h-870.4c-42.342 0-76.8 34.458-76.8 76.8v665.6c0 42.342 34.458 76.8 76.8 76.8h870.4c42.342 0 76.8-34.458 76.8-76.8v-665.6c0-42.342-34.458-76.8-76.8-76.8zM76.8 806.4c-14.131 0-25.6-11.469-25.6-25.6v-665.6c0-14.131 11.469-25.6 25.6-25.6h870.4c14.131 0 25.6 11.469 25.6 25.6v665.6c0 14.131-11.469 25.6-25.6 25.6h-870.4zM179.2 448c-8.294 0-16.384 3.994-21.35 11.418-7.834 11.776-4.659 27.648 7.117 35.482l121.651 81.101-121.651 81.101c-11.776 7.834-14.95 23.757-7.117 35.482s23.757 14.95 35.482 7.117l153.6-102.4c7.117-4.762 11.418-12.749 11.418-21.299s-4.301-16.538-11.418-21.299l-153.6-102.4c-4.352-2.918-9.318-4.301-14.182-4.301zM588.8 448h-153.6c-14.131 0-25.6 11.469-25.6 25.6s11.469 25.6 25.6 25.6h153.6c14.131 0 25.6-11.469 25.6-25.6s-11.469-25.6-25.6-25.6z" />
<glyph unicode="&#xe61a;" glyph-name="users2" d="M947.2 38.4h-563.2c-42.342 0-76.8 34.458-76.8 76.8 0 2.458 0.563 60.928 47.309 118.528 26.88 33.075 63.539 59.29 108.954 77.926 54.835 22.528 122.88 33.894 202.138 33.894s147.251-11.418 202.138-33.894c45.414-18.637 82.074-44.851 108.954-77.926 46.797-57.6 47.309-116.070 47.309-118.528 0-42.342-34.458-76.8-76.8-76.8zM358.4 115.046c0.051-14.080 11.52-25.446 25.6-25.446h563.2c14.080 0 25.549 11.418 25.6 25.446-0.051 1.792-1.638 45.824-37.837 88.781-49.869 59.238-143.002 90.522-269.363 90.522s-219.494-31.334-269.363-90.522c-36.198-43.008-37.786-86.989-37.837-88.781zM665.6 396.8c-112.947 0-204.8 91.853-204.8 204.8s91.853 204.8 204.8 204.8 204.8-91.853 204.8-204.8c0-112.947-91.853-204.8-204.8-204.8zM665.6 755.2c-84.685 0-153.6-68.915-153.6-153.6s68.915-153.6 153.6-153.6 153.6 68.915 153.6 153.6-68.915 153.6-153.6 153.6zM230.4 38.4h-153.6c-42.342 0-76.8 34.458-76.8 76.8 0 1.894 0.41 47.462 33.946 92.16 19.354 25.856 45.773 46.285 78.49 60.826 39.117 17.408 87.45 26.214 143.616 26.214 9.165 0 18.227-0.256 26.982-0.717 14.131-0.768 24.934-12.8 24.218-26.931s-12.8-24.986-26.931-24.218c-7.834 0.41-15.974 0.614-24.218 0.614-199.373 0-204.646-121.805-204.8-128.154 0.051-14.029 11.52-25.446 25.6-25.446h153.6c14.131 0 25.6-11.469 25.6-25.6s-11.469-25.6-25.6-25.6zM256 345.6c-84.685 0-153.6 68.915-153.6 153.6s68.915 153.6 153.6 153.6 153.6-68.915 153.6-153.6-68.915-153.6-153.6-153.6zM256 601.6c-56.474 0-102.4-45.926-102.4-102.4s45.926-102.4 102.4-102.4 102.4 45.926 102.4 102.4c0 56.474-45.926 102.4-102.4 102.4z" />
<glyph unicode="&#xe61b;" glyph-name="shuffle" d="M793.6 89.6c-10.701 0-20.685 6.758-24.269 17.51-4.454 13.414 2.765 27.904 16.179 32.358l43.366 14.438c-167.014 39.219-265.984 160.205-362.24 277.862-114.534 139.981-222.72 272.23-440.986 272.23-14.131 0-25.6 11.469-25.6 25.6s11.469 25.6 25.6 25.6c242.534 0 363.571-147.917 480.614-290.97 114.534-139.981 222.72-272.23 440.986-272.23 12.544 0 23.245-9.114 25.293-21.504s-5.274-24.422-17.152-28.365l-153.6-51.2c-2.662-0.87-5.427-1.331-8.090-1.331zM550.656 499.2c-5.99 0-11.981 2.099-16.845 6.349-10.65 9.318-11.725 25.498-2.406 36.147 76.339 87.194 165.274 169.216 297.523 200.346l-43.469 14.49c-13.414 4.454-20.685 18.944-16.179 32.358s18.944 20.685 32.358 16.179l153.6-51.2c11.93-3.994 19.2-15.974 17.152-28.365s-12.698-21.504-25.293-21.504c-170.65 0-274.227-78.387-377.242-196.045-5.069-5.786-12.134-8.755-19.251-8.755zM25.6 140.8c-14.131 0-25.6 11.469-25.6 25.6s11.469 25.6 25.6 25.6c170.65 0 274.227 78.387 377.242 196.045 9.318 10.65 25.498 11.725 36.147 2.406s11.725-25.498 2.406-36.147c-97.075-110.899-214.682-213.555-415.795-213.555z" />
<glyph unicode="&#xe61c;" glyph-name="repeat-one" d="M888.525 798.925l-153.6 153.6c-9.984 9.984-26.214 9.984-36.198 0s-9.984-26.214 0-36.198l109.875-109.875h-680.602c-42.342 0-76.8-34.458-76.8-76.8v-460.8c0-14.131 11.469-25.6 25.6-25.6s25.6 11.469 25.6 25.6v460.8c0 14.131 11.469 25.6 25.6 25.6h680.602l-109.875-109.875c-9.984-9.984-9.984-26.214 0-36.198 5.018-5.018 11.571-7.475 18.125-7.475s13.107 2.509 18.125 7.475l153.6 153.6c9.984 9.984 9.984 26.214 0 36.198zM896 652.8c-14.131 0-25.6-11.469-25.6-25.6v-460.8c0-14.131-11.469-25.6-25.6-25.6h-680.602l109.875 109.875c9.984 9.984 9.984 26.214 0 36.198s-26.214 9.984-36.198 0l-153.6-153.6c-9.984-9.984-9.984-26.214 0-36.198l153.6-153.6c5.018-5.018 11.571-7.475 18.125-7.475s13.107 2.509 18.125 7.475c9.984 9.984 9.984 26.214 0 36.198l-109.875 109.875h680.602c42.342 0 76.8 34.458 76.8 76.8v460.8c0 14.131-11.469 25.6-25.6 25.6zM486.4 294.4c-14.131 0-25.6 11.469-25.6 25.6v230.4h-25.6c-14.131 0-25.6 11.469-25.6 25.6s11.469 25.6 25.6 25.6h51.2c14.131 0 25.6-11.469 25.6-25.6v-256c0-14.131-11.469-25.6-25.6-25.6z" />
<glyph unicode="&#xe61d;" glyph-name="repeat" d="M888.525 798.925l-153.6 153.6c-9.984 9.984-26.214 9.984-36.198 0s-9.984-26.214 0-36.198l109.875-109.875h-680.602c-42.342 0-76.8-34.458-76.8-76.8v-460.8c0-14.131 11.469-25.6 25.6-25.6s25.6 11.469 25.6 25.6v460.8c0 14.131 11.469 25.6 25.6 25.6h680.602l-109.875-109.875c-9.984-9.984-9.984-26.214 0-36.198 5.018-5.018 11.571-7.475 18.125-7.475s13.107 2.509 18.125 7.475l153.6 153.6c9.984 9.984 9.984 26.214 0 36.198zM896 652.8c-14.131 0-25.6-11.469-25.6-25.6v-460.8c0-14.131-11.469-25.6-25.6-25.6h-680.602l109.875 109.875c9.984 9.984 9.984 26.214 0 36.198s-26.214 9.984-36.198 0l-153.6-153.6c-9.984-9.984-9.984-26.214 0-36.198l153.6-153.6c5.018-5.018 11.571-7.475 18.125-7.475s13.107 2.509 18.125 7.475c9.984 9.984 9.984 26.214 0 36.198l-109.875 109.875h680.602c42.342 0 76.8 34.458 76.8 76.8v460.8c0 14.131-11.469 25.6-25.6 25.6z" />
<glyph unicode="&#xe61e;" glyph-name="volume-high" d="M699.034 198.093c-7.424 0-14.797 3.226-19.866 9.421-8.909 10.957-7.27 27.085 3.686 35.994 54.118 43.981 85.146 109.21 85.146 178.842s-31.027 134.81-85.094 178.842c-10.957 8.909-12.646 25.037-3.686 35.994s25.037 12.646 35.994 3.686c66.099-53.76 103.987-133.427 103.987-218.573s-37.888-164.762-103.987-218.573c-4.762-3.84-10.445-5.734-16.128-5.734zM795.904 78.899c-7.424 0-14.797 3.226-19.866 9.421-8.909 10.957-7.27 27.085 3.686 35.994 90.163 73.318 141.875 181.965 141.875 298.035s-51.712 224.717-141.875 298.035c-10.957 8.909-12.646 25.037-3.686 35.994s25.037 12.646 35.994 3.686c102.144-83.098 160.768-206.234 160.768-337.766s-58.573-254.669-160.768-337.766c-4.762-3.84-10.445-5.734-16.128-5.734zM602.214 317.338c-7.424 0-14.797 3.226-19.866 9.421-8.909 10.957-7.27 27.085 3.686 35.994 18.022 14.694 28.365 36.403 28.365 59.597s-10.342 44.954-28.365 59.597c-10.957 8.909-12.646 25.037-3.686 35.994s25.037 12.646 35.994 3.686c30.054-24.422 47.258-60.621 47.258-99.328s-17.254-74.906-47.258-99.328c-4.762-3.84-10.445-5.734-16.128-5.734zM417.28 795.802c-12.646 0-25.293-5.325-37.683-15.821l-209.818-178.33h-92.979c-42.342 0-76.8-34.458-76.8-76.8v-204.8c0-42.342 34.458-76.8 76.8-76.8h92.979l209.818-178.33c12.339-10.496 25.037-15.821 37.683-15.821 0 0 0 0 0 0 13.926 0 26.419 6.758 34.304 18.534 6.093 9.165 9.216 20.89 9.216 34.816v640c0 36.864-21.862 53.402-43.52 53.402zM51.2 320v204.8c0 14.131 11.469 25.6 25.6 25.6h76.8v-256h-76.8c-14.131 0-25.6 11.469-25.6 25.6zM409.6 106.547l-204.8 174.080v283.546l204.8 174.080v-631.706z" />
<glyph unicode="&#xe61f;" glyph-name="laptop-phone" d="M588.8 243.2h-409.6c-42.342 0-76.8 34.458-76.8 76.8v409.6c0 42.342 34.458 76.8 76.8 76.8h665.6c42.342 0 76.8-34.458 76.8-76.8v-51.2c0-14.131-11.469-25.6-25.6-25.6s-25.6 11.469-25.6 25.6v51.2c0 14.131-11.469 25.6-25.6 25.6h-665.6c-14.131 0-25.6-11.469-25.6-25.6v-409.6c0-14.131 11.469-25.6 25.6-25.6h409.6c14.131 0 25.6-11.469 25.6-25.6s-11.469-25.6-25.6-25.6zM588.8 38.4h-512c-42.342 0-76.8 34.458-76.8 76.8v51.2c0 14.131 11.469 25.6 25.6 25.6h563.2c14.131 0 25.6-11.469 25.6-25.6s-11.469-25.6-25.6-25.6h-537.6v-25.6c0-14.131 11.469-25.6 25.6-25.6h512c14.131 0 25.6-11.469 25.6-25.6s-11.469-25.6-25.6-25.6zM947.2 38.4h-204.8c-42.342 0-76.8 34.458-76.8 76.8v409.6c0 42.342 34.458 76.8 76.8 76.8h204.8c42.342 0 76.8-34.458 76.8-76.8v-409.6c0-42.342-34.458-76.8-76.8-76.8zM742.4 550.4c-14.131 0-25.6-11.469-25.6-25.6v-409.6c0-14.131 11.469-25.6 25.6-25.6h204.8c14.131 0 25.6 11.469 25.6 25.6v409.6c0 14.131-11.469 25.6-25.6 25.6h-204.8zM844.8 140.8c-6.758 0-13.312 2.714-18.074 7.526s-7.526 11.366-7.526 18.074 2.714 13.363 7.526 18.074c4.762 4.762 11.366 7.526 18.074 7.526s13.363-2.714 18.074-7.526c4.762-4.762 7.526-11.366 7.526-18.074s-2.714-13.363-7.526-18.074c-4.762-4.762-11.366-7.526-18.074-7.526z" />
<glyph unicode="&#xe620;" glyph-name="ellipsis" d="M128 294.4c-70.554 0-128 57.446-128 128s57.446 128 128 128 128-57.446 128-128-57.446-128-128-128zM128 499.2c-42.342 0-76.8-34.458-76.8-76.8s34.458-76.8 76.8-76.8 76.8 34.458 76.8 76.8c0 42.342-34.458 76.8-76.8 76.8zM486.4 294.4c-70.554 0-128 57.446-128 128s57.446 128 128 128 128-57.446 128-128-57.446-128-128-128zM486.4 499.2c-42.342 0-76.8-34.458-76.8-76.8s34.458-76.8 76.8-76.8c42.342 0 76.8 34.458 76.8 76.8s-34.458 76.8-76.8 76.8zM844.8 294.4c-70.554 0-128 57.446-128 128s57.446 128 128 128 128-57.446 128-128-57.446-128-128-128zM844.8 499.2c-42.342 0-76.8-34.458-76.8-76.8s34.458-76.8 76.8-76.8 76.8 34.458 76.8 76.8c0 42.342-34.458 76.8-76.8 76.8z" />
<glyph unicode="&#xe621;" glyph-name="aim" d="M486.4 908.8c-14.131 0-25.6-11.469-25.6-25.6v-204.8c0-14.131 11.469-25.6 25.6-25.6s25.6 11.469 25.6 25.6v204.8c0 14.131-11.469 25.6-25.6 25.6zM486.4 192c-14.131 0-25.6-11.469-25.6-25.6v-204.8c0-14.131 11.469-25.6 25.6-25.6s25.6 11.469 25.6 25.6v204.8c0 14.131-11.469 25.6-25.6 25.6zM256 422.4c0 14.131-11.469 25.6-25.6 25.6h-204.8c-14.131 0-25.6-11.469-25.6-25.6s11.469-25.6 25.6-25.6h204.8c14.131 0 25.6 11.469 25.6 25.6zM947.2 448h-204.8c-14.131 0-25.6-11.469-25.6-25.6s11.469-25.6 25.6-25.6h204.8c14.131 0 25.6 11.469 25.6 25.6s-11.469 25.6-25.6 25.6zM829.952 499.2c-11.059 0-21.197 7.168-24.525 18.278-32.154 108.083-115.866 191.795-223.949 223.949-13.568 4.045-21.248 18.278-17.254 31.846s18.278 21.248 31.846 17.254c60.774-18.074 116.736-51.507 161.843-96.563s78.49-101.069 96.563-161.843c4.045-13.568-3.686-27.802-17.254-31.846-2.458-0.717-4.915-1.075-7.322-1.075zM588.8 53.248c-11.059 0-21.197 7.168-24.525 18.278-4.045 13.568 3.686 27.802 17.254 31.846 108.032 32.154 191.744 115.866 223.949 223.949 4.045 13.568 18.278 21.248 31.846 17.254s21.248-18.278 17.254-31.846c-18.074-60.774-51.507-116.736-96.563-161.843s-101.018-78.49-161.843-96.563c-2.458-0.717-4.915-1.075-7.322-1.075zM384 53.248c-2.406 0-4.864 0.358-7.322 1.075-60.774 18.074-116.736 51.456-161.843 96.563s-78.49 101.018-96.563 161.843c-4.045 13.568 3.686 27.802 17.254 31.846s27.802-3.686 31.846-17.254c32.154-108.032 115.866-191.744 223.949-223.898 13.568-4.045 21.248-18.278 17.254-31.846-3.328-11.11-13.517-18.33-24.525-18.33zM142.848 499.2c-2.406 0-4.864 0.358-7.322 1.075-13.568 4.045-21.248 18.278-17.254 31.846 18.074 60.774 51.507 116.736 96.563 161.843s101.018 78.49 161.843 96.563c13.568 4.045 27.802-3.686 31.846-17.254s-3.686-27.802-17.254-31.846c-108.032-32.154-191.744-115.866-223.898-223.949-3.328-11.11-13.517-18.33-24.525-18.33z" />
<glyph unicode="&#xe622;" glyph-name="map-marker" d="M512-64c-7.834 0-15.258 3.584-20.122 9.779-2.918 3.738-72.602 92.877-143.206 224.512-41.574 77.466-74.752 153.549-98.56 226.099-30.054 91.494-45.261 177.766-45.261 256.41 0 169.37 137.83 307.2 307.2 307.2s307.2-137.83 307.2-307.2c0-78.643-15.258-164.864-45.261-256.41-23.808-72.55-56.986-148.634-98.56-226.099-70.656-131.635-140.288-220.774-143.206-224.512-4.864-6.195-12.288-9.779-20.122-9.779zM512 908.8c-141.158 0-256-114.842-256-256 0-166.605 74.906-341.197 137.779-458.291 46.182-86.067 92.621-154.317 118.221-189.952 25.702 35.789 72.448 104.448 118.682 190.771 62.618 116.89 137.318 291.174 137.318 457.472 0 141.158-114.842 256-256 256zM512 499.2c-84.685 0-153.6 68.915-153.6 153.6s68.915 153.6 153.6 153.6 153.6-68.915 153.6-153.6-68.915-153.6-153.6-153.6zM512 755.2c-56.474 0-102.4-45.926-102.4-102.4s45.926-102.4 102.4-102.4c56.474 0 102.4 45.926 102.4 102.4s-45.926 102.4-102.4 102.4z" />
<glyph unicode="&#xe623;" glyph-name="location" d="M435.2-64c-2.202 0-4.454 0.307-6.656 0.87-11.162 3.021-18.944 13.158-18.944 24.73v384h-384c-11.571 0-21.709 7.782-24.73 18.944s1.894 22.989 11.878 28.774l972.8 563.2c10.035 5.786 22.733 4.147 30.925-4.045s9.882-20.89 4.045-30.925l-563.2-972.8c-4.659-8.038-13.21-12.749-22.17-12.749zM120.934 396.8h314.266c14.131 0 25.6-11.469 25.6-25.6v-314.266l467.354 807.219-807.219-467.354z" />
<glyph unicode="&#xe624;" glyph-name="calendar-check" d="M947.2 857.6h-128v25.6c0 14.131-11.469 25.6-25.6 25.6s-25.6-11.469-25.6-25.6v-25.6h-512v25.6c0 14.131-11.469 25.6-25.6 25.6s-25.6-11.469-25.6-25.6v-25.6h-128c-42.342 0-76.8-34.458-76.8-76.8v-716.8c0-42.342 34.458-76.8 76.8-76.8h870.4c42.342 0 76.8 34.458 76.8 76.8v716.8c0 42.342-34.458 76.8-76.8 76.8zM76.8 806.4h128v-76.8c0-14.131 11.469-25.6 25.6-25.6s25.6 11.469 25.6 25.6v76.8h512v-76.8c0-14.131 11.469-25.6 25.6-25.6s25.6 11.469 25.6 25.6v76.8h128c14.131 0 25.6-11.469 25.6-25.6v-128h-921.6v128c0 14.131 11.469 25.6 25.6 25.6zM947.2 38.4h-870.4c-14.131 0-25.6 11.469-25.6 25.6v537.6h921.6v-537.6c0-14.131-11.469-25.6-25.6-25.6zM435.2 166.4c-6.554 0-13.107 2.509-18.125 7.475l-102.4 102.4c-9.984 9.984-9.984 26.214 0 36.198s26.214 9.984 36.198 0l84.275-84.275 237.875 237.875c9.984 9.984 26.214 9.984 36.198 0s9.984-26.214 0-36.198l-256-256c-5.018-5.018-11.571-7.475-18.125-7.475z" />
<glyph unicode="&#xe625;" glyph-name="chevron-right" d="M256-64c-6.554 0-13.107 2.509-18.125 7.475-9.984 9.984-9.984 26.214 0 36.198l442.675 442.675-442.675 442.675c-9.984 9.984-9.984 26.214 0 36.198s26.214 9.984 36.198 0l460.8-460.8c9.984-9.984 9.984-26.214 0-36.198l-460.8-460.8c-5.018-5.018-11.571-7.475-18.125-7.475z" />
<glyph unicode="&#xe626;" glyph-name="bug" d="M896 345.6h-77.568c-3.174 56.269-16.896 110.234-39.987 158.822 53.043 15.616 91.904 64.717 91.904 122.778 0 14.131-11.469 25.6-25.6 25.6s-25.6-11.469-25.6-25.6c0-38.963-29.184-71.27-66.867-76.134-8.909 13.619-18.688 26.675-29.235 39.014-5.53 6.451-11.213 12.595-17.050 18.534 7.168 22.477 10.752 45.875 10.752 69.786 0 127.027-103.373 230.4-230.4 230.4s-230.4-103.373-230.4-230.4c0-23.91 3.635-47.309 10.752-69.786-5.837-5.939-11.52-12.083-17.050-18.534-10.598-12.339-20.326-25.395-29.235-39.014-37.683 4.864-66.867 37.171-66.867 76.134 0 14.131-11.469 25.6-25.6 25.6s-25.6-11.469-25.6-25.6c0-58.061 38.861-107.162 91.904-122.778-23.091-48.589-36.762-102.554-39.987-158.822h-77.517c-14.131 0-25.6-11.469-25.6-25.6s11.469-25.6 25.6-25.6h77.568c3.174-56.269 16.896-110.234 39.987-158.822-53.043-15.616-91.904-64.717-91.904-122.778 0-14.131 11.469-25.6 25.6-25.6s25.6 11.469 25.6 25.6c0 38.963 29.184 71.27 66.867 76.134 8.909-13.619 18.688-26.675 29.235-39.014 62.976-73.472 146.995-113.92 236.646-113.92s173.722 40.448 236.646 113.92c10.598 12.339 20.326 25.395 29.235 39.014 37.683-4.864 66.867-37.171 66.867-76.134 0-14.131 11.469-25.6 25.6-25.6s25.6 11.469 25.6 25.6c0 58.061-38.861 107.162-91.904 122.778 23.091 48.589 36.762 102.554 39.987 158.822h77.517c14.131 0 25.6 11.469 25.6 25.6s-11.469 25.6-25.6 25.6zM486.4 857.6c98.816 0 179.2-80.384 179.2-179.2 0-11.008-0.973-21.811-2.918-32.461-52.326 37.786-112.896 58.061-176.282 58.061s-123.955-20.224-176.282-58.061c-1.946 10.65-2.918 21.453-2.918 32.461 0 98.816 80.384 179.2 179.2 179.2zM204.8 320c0 173.312 112.691 316.058 256 331.418v-662.835c-143.309 15.36-256 158.106-256 331.418zM512-11.418v662.835c143.309-15.36 256-158.106 256-331.418s-112.691-316.058-256-331.418z" />
<glyph unicode="&#xe801;" glyph-name="check-square" d="M896-64h-819.2c-42.342 0-76.8 34.458-76.8 76.8v819.2c0 42.342 34.458 76.8 76.8 76.8h819.2c42.342 0 76.8-34.458 76.8-76.8v-819.2c0-42.342-34.458-76.8-76.8-76.8zM76.8 857.6c-14.131 0-25.6-11.469-25.6-25.6v-819.2c0-14.131 11.469-25.6 25.6-25.6h819.2c14.131 0 25.6 11.469 25.6 25.6v819.2c0 14.131-11.469 25.6-25.6 25.6h-819.2zM384 217.6c-6.554 0-13.107 2.509-18.125 7.475l-153.6 153.6c-9.984 9.984-9.984 26.214 0 36.198s26.214 9.984 36.198 0l135.475-135.475 340.275 340.275c9.984 9.984 26.214 9.984 36.198 0s9.984-26.214 0-36.198l-358.4-358.4c-5.018-5.018-11.571-7.475-18.125-7.475z" />
<glyph unicode="&#xe900;" glyph-name="plus" d="M947.2 448h-435.2v435.2c0 14.131-11.469 25.6-25.6 25.6s-25.6-11.469-25.6-25.6v-435.2h-435.2c-14.131 0-25.6-11.469-25.6-25.6s11.469-25.6 25.6-25.6h435.2v-435.2c0-14.131 11.469-25.6 25.6-25.6s25.6 11.469 25.6 25.6v435.2h435.2c14.131 0 25.6 11.469 25.6 25.6s-11.469 25.6-25.6 25.6z" />
<glyph unicode="&#xe901;" glyph-name="store" d="M921.6 473.6v51.2c0 3.994-0.922 7.885-2.714 11.469l-102.4 204.8c-4.352 8.653-13.21 14.131-22.886 14.131h-614.4c-9.677 0-18.586-5.478-22.886-14.131l-102.4-204.8c-1.792-3.533-2.714-7.475-2.714-11.469v-51.2c0-41.779 20.122-78.95 51.2-102.349v-332.851h-25.6c-14.131 0-25.6-11.469-25.6-25.6s11.469-25.6 25.6-25.6h819.2c14.131 0 25.6 11.469 25.6 25.6s-11.469 25.6-25.6 25.6h-25.6v332.851c31.078 23.398 51.2 60.518 51.2 102.349zM588.8 396.8c-42.342 0-76.8 34.458-76.8 76.8v25.6h153.6v-25.6c0-42.342-34.458-76.8-76.8-76.8zM102.4 473.6v25.6h153.6v-25.6c0-42.342-34.458-76.8-76.8-76.8s-76.8 34.458-76.8 76.8zM460.8 704v-153.6h-146.432l38.4 153.6h108.032zM620.032 704l38.4-153.6h-146.432v153.6h108.032zM307.2 499.2h153.6v-25.6c0-42.342-34.458-76.8-76.8-76.8s-76.8 34.458-76.8 76.8v25.6zM716.8 499.2h153.6v-25.6c0-42.342-34.458-76.8-76.8-76.8s-76.8 34.458-76.8 76.8v25.6zM854.579 550.4h-143.411l-38.4 153.6h105.011l76.8-153.6zM195.021 704h105.011l-38.4-153.6h-143.411l76.8 153.6zM153.6 348.16c8.294-1.69 16.845-2.56 25.6-2.56 41.83 0 79.053 20.173 102.4 51.302 23.347-31.13 60.57-51.302 102.4-51.302s79.053 20.173 102.4 51.302c18.483-24.576 45.568-42.342 76.8-48.691v-309.76h-409.6v309.76zM819.2 38.4h-204.8v309.76c31.232 6.349 58.317 24.115 76.8 48.691 23.347-31.13 60.57-51.302 102.4-51.302 8.755 0 17.306 0.87 25.6 2.56v-309.76zM716.8 217.6c0-14.131-11.469-25.6-25.6-25.6s-25.6 11.469-25.6 25.6c0 14.131 11.469 25.6 25.6 25.6s25.6-11.469 25.6-25.6zM230.4 192c-6.554 0-13.107 2.509-18.125 7.475-9.984 9.984-9.984 26.214 0 36.198l51.2 51.2c9.984 9.984 26.214 9.984 36.198 0s9.984-26.214 0-36.198l-51.2-51.2c-5.018-5.018-11.571-7.475-18.125-7.475zM281.6 89.6c-6.554 0-13.107 2.509-18.125 7.475-9.984 9.984-9.984 26.214 0 36.198l153.6 153.6c9.984 9.984 26.214 9.984 36.198 0s9.984-26.214 0-36.198l-153.6-153.6c-5.018-5.018-11.571-7.475-18.125-7.475zM435.2 89.6c-6.554 0-13.107 2.509-18.125 7.475-9.984 9.984-9.984 26.214 0 36.198l51.2 51.2c9.984 9.984 26.214 9.984 36.198 0s9.984-26.214 0-36.198l-51.2-51.2c-5.018-5.018-11.571-7.475-18.125-7.475z" />
<glyph unicode="&#xe902;" glyph-name="heart" d="M486.4-12.8c-4.301 0-8.55 1.075-12.442 3.226-4.813 2.662-119.091 66.611-235.11 171.366-68.659 61.952-123.443 125.338-162.97 188.416-50.381 80.435-75.878 160.717-75.878 238.592 0 148.224 120.576 268.8 268.8 268.8 50.176 0 103.475-18.79 150.067-52.941 27.238-19.968 50.432-44.032 67.533-69.581 17.101 25.549 40.294 49.613 67.533 69.581 46.592 34.15 99.891 52.941 150.067 52.941 148.224 0 268.8-120.576 268.8-268.8 0-77.875-25.549-158.157-75.878-238.592-39.475-63.078-94.31-126.464-162.918-188.416-116.019-104.755-230.298-168.704-235.11-171.366-3.891-2.15-8.141-3.226-12.442-3.226zM268.8 806.4c-119.962 0-217.6-97.638-217.6-217.6 0-155.648 120.32-297.062 221.235-388.352 90.112-81.51 181.453-138.65 213.965-158.054 32.512 19.405 123.853 76.544 213.965 158.054 100.915 91.238 221.235 232.704 221.235 388.352 0 119.962-97.638 217.6-217.6 217.6-87.194 0-171.878-71.731-193.331-136.090-3.482-10.445-13.261-17.51-24.269-17.51s-20.787 7.066-24.269 17.51c-21.453 64.358-106.138 136.090-193.331 136.090z" />
<glyph unicode="&#xe903;" glyph-name="camera2" d="M486.4 192c-127.027 0-230.4 103.373-230.4 230.4s103.373 230.4 230.4 230.4c127.027 0 230.4-103.373 230.4-230.4s-103.373-230.4-230.4-230.4zM486.4 601.6c-98.816 0-179.2-80.384-179.2-179.2s80.384-179.2 179.2-179.2 179.2 80.384 179.2 179.2-80.384 179.2-179.2 179.2zM896 38.4h-819.2c-42.342 0-76.8 34.458-76.8 76.8v512c0 42.342 34.458 76.8 76.8 76.8h76.8c21.248 0 54.272 13.67 69.325 28.723l30.003 30.003c24.934 24.934 70.298 43.725 105.523 43.725h256c35.226 0 80.589-18.79 105.523-43.725l30.003-30.003c15.002-15.002 48.077-28.723 69.325-28.723h76.8c42.342 0 76.8-34.458 76.8-76.8v-512c0-42.342-34.458-76.8-76.8-76.8zM76.8 652.8c-14.131 0-25.6-11.469-25.6-25.6v-512c0-14.131 11.469-25.6 25.6-25.6h819.2c14.131 0 25.6 11.469 25.6 25.6v512c0 14.131-11.469 25.6-25.6 25.6h-76.8c-35.226 0-80.589 18.79-105.523 43.725l-30.003 30.003c-15.002 15.002-48.077 28.723-69.325 28.723h-256c-21.248 0-54.272-13.67-69.325-28.723l-30.003-30.003c-24.934-24.934-70.246-43.725-105.523-43.725h-76.8z" />
<glyph unicode="&#xe904;" glyph-name="tags" d="M793.6 550.4c-42.342 0-76.8 34.458-76.8 76.8s34.458 76.8 76.8 76.8 76.8-34.458 76.8-76.8-34.458-76.8-76.8-76.8zM793.6 652.8c-14.131 0-25.6-11.469-25.6-25.6s11.469-25.6 25.6-25.6 25.6 11.469 25.6 25.6-11.469 25.6-25.6 25.6zM896 806.4h-179.2c-35.226 0-80.589-18.79-105.523-43.725l-388.403-388.403c-14.49-14.49-22.426-33.741-22.426-54.323s7.987-39.834 22.426-54.323l133.222-133.222-56.064-32.358c-5.888-3.379-12.749-4.25-19.405-2.509s-12.186 5.99-15.565 11.878l-184.115 318.925c-7.066 12.237-2.867 27.904 9.37 34.97l408.883 236.083c12.237 7.066 16.435 22.733 9.37 34.97s-22.733 16.435-34.97 9.37l-408.883-236.083c-17.715-10.24-30.413-26.778-35.738-46.643s-2.611-40.55 7.629-58.266l184.115-318.925c10.24-17.715 26.778-30.413 46.643-35.738 6.656-1.792 13.414-2.662 20.070-2.662 13.312 0 26.368 3.482 38.195 10.291l67.942 39.219 38.502-38.502c14.49-14.49 33.741-22.426 54.323-22.426s39.834 7.987 54.323 22.426l388.403 388.403c24.934 24.934 43.674 70.246 43.674 105.523v179.2c0 42.342-34.458 76.8-76.8 76.8zM921.6 550.4c0-21.248-13.67-54.272-28.723-69.325l-388.403-388.403c-4.813-4.813-11.213-7.424-18.125-7.424s-13.312 2.662-18.125 7.424l-209.203 209.203c-4.813 4.813-7.424 11.213-7.424 18.074s2.662 13.312 7.424 18.125l388.403 388.403c15.002 15.002 48.077 28.723 69.274 28.723h179.2c14.131 0 25.6-11.469 25.6-25.6v-179.2z" />
<glyph unicode="&#xe905;" glyph-name="bubble" d="M25.6-12.8c-11.52 0-21.606 7.68-24.678 18.79s1.638 22.886 11.52 28.774c86.579 51.917 122.47 127.437 135.219 162.765-94.106 72.038-147.661 171.725-147.661 276.070 0 52.685 13.21 103.731 39.322 151.757 24.883 45.773 60.416 86.784 105.523 121.907 91.494 71.168 212.787 110.387 341.555 110.387s250.061-39.219 341.555-110.387c45.107-35.072 80.64-76.083 105.523-121.907 26.112-47.974 39.322-99.021 39.322-151.757s-13.21-103.731-39.322-151.757c-24.883-45.773-60.416-86.784-105.523-121.907-91.494-71.168-212.787-110.387-341.555-110.387-52.89 0-104.806 6.605-154.419 19.712-21.965-14.643-63.027-40.602-112.077-65.024-76.186-37.888-141.517-57.088-194.253-57.088zM486.4 806.4c-239.974 0-435.2-149.299-435.2-332.8 0-92.928 51.456-182.374 141.107-245.35 8.806-6.195 12.8-17.203 10.035-27.597-5.99-22.323-26.368-83.61-80.896-142.746 66.662 23.347 138.445 63.846 191.437 100.301 6.298 4.352 14.182 5.632 21.555 3.533 48.538-13.875 99.686-20.941 151.962-20.941 239.974 0 435.2 149.299 435.2 332.8s-195.226 332.8-435.2 332.8z" />
<glyph unicode="&#xe906;" glyph-name="list" d="M998.4 140.8h-768c-14.131 0-25.6 11.469-25.6 25.6s11.469 25.6 25.6 25.6h768c14.131 0 25.6-11.469 25.6-25.6s-11.469-25.6-25.6-25.6zM998.4 396.8h-768c-14.131 0-25.6 11.469-25.6 25.6s11.469 25.6 25.6 25.6h768c14.131 0 25.6-11.469 25.6-25.6s-11.469-25.6-25.6-25.6zM998.4 652.8h-768c-14.131 0-25.6 11.469-25.6 25.6s11.469 25.6 25.6 25.6h768c14.131 0 25.6-11.469 25.6-25.6s-11.469-25.6-25.6-25.6zM76.8 601.6c-42.342 0-76.8 34.458-76.8 76.8s34.458 76.8 76.8 76.8 76.8-34.458 76.8-76.8-34.458-76.8-76.8-76.8zM76.8 704c-14.131 0-25.6-11.469-25.6-25.6s11.469-25.6 25.6-25.6 25.6 11.469 25.6 25.6-11.469 25.6-25.6 25.6zM76.8 345.6c-42.342 0-76.8 34.458-76.8 76.8s34.458 76.8 76.8 76.8 76.8-34.458 76.8-76.8c0-42.342-34.458-76.8-76.8-76.8zM76.8 448c-14.131 0-25.6-11.469-25.6-25.6s11.469-25.6 25.6-25.6 25.6 11.469 25.6 25.6-11.469 25.6-25.6 25.6zM76.8 89.6c-42.342 0-76.8 34.458-76.8 76.8s34.458 76.8 76.8 76.8 76.8-34.458 76.8-76.8-34.458-76.8-76.8-76.8zM76.8 192c-14.131 0-25.6-11.469-25.6-25.6s11.469-25.6 25.6-25.6 25.6 11.469 25.6 25.6-11.469 25.6-25.6 25.6z" />
<glyph unicode="&#xe907;" glyph-name="border-all1" d="M844.8 857.6h-716.8c-42.342 0-76.8-34.458-76.8-76.8v-716.8c0-42.342 34.458-76.8 76.8-76.8h716.8c42.342 0 76.8 34.458 76.8 76.8v716.8c0 42.342-34.458 76.8-76.8 76.8zM844.8 806.4c14.131 0 25.6-11.469 25.6-25.6v-332.8h-358.4v358.4h332.8zM102.4 780.8c0 14.131 11.469 25.6 25.6 25.6h332.8v-358.4h-358.4v332.8zM128 38.4c-14.131 0-25.6 11.469-25.6 25.6v332.8h358.4v-358.4h-332.8zM870.4 64c0-14.131-11.469-25.6-25.6-25.6h-332.8v358.4h358.4v-332.8z" />
<glyph unicode="&#xe908;" glyph-name="graph" d="M998.4-64h-972.8c-14.131 0-25.6 11.469-25.6 25.6v972.8c0 11.878 8.141 22.17 19.712 24.934s23.45-2.867 28.774-13.466l51.2-102.4c6.298-12.646 1.178-28.006-11.469-34.355s-28.006-1.178-34.355 11.469l-2.714 5.427v-838.758h838.758l-5.427 2.714c-12.646 6.298-17.766 21.709-11.469 34.355s21.709 17.766 34.355 11.469l102.4-51.2c10.598-5.325 16.179-17.203 13.466-28.774s-13.056-19.712-24.934-19.712zM870.4 729.6c0 42.342-34.458 76.8-76.8 76.8s-76.8-34.458-76.8-76.8c0-24.576 11.622-46.49 29.645-60.518l-107.827-323.482c-14.336-0.256-27.699-4.454-39.117-11.571l-142.95 114.381c2.765 7.885 4.301 16.384 4.301 25.242 0 42.342-34.458 76.8-76.8 76.8s-76.8-34.458-76.8-76.8c0-20.685 8.243-39.424 21.555-53.248l-88.883-177.766c-3.123 0.41-6.246 0.614-9.472 0.614-42.342 0-76.8-34.458-76.8-76.8s34.458-76.8 76.8-76.8 76.8 34.458 76.8 76.8c0 20.685-8.243 39.424-21.555 53.248l88.883 177.766c3.123-0.41 6.246-0.614 9.472-0.614 14.848 0 28.774 4.25 40.499 11.622l142.95-114.381c-2.765-7.885-4.301-16.384-4.301-25.242 0-42.342 34.458-76.8 76.8-76.8s76.8 34.458 76.8 76.8c0 24.576-11.622 46.49-29.645 60.57l107.827 323.482c41.677 0.768 75.418 34.867 75.418 76.749zM793.6 755.2c14.131 0 25.6-11.469 25.6-25.6s-11.469-25.6-25.6-25.6-25.6 11.469-25.6 25.6 11.469 25.6 25.6 25.6zM384 499.2c14.131 0 25.6-11.469 25.6-25.6s-11.469-25.6-25.6-25.6-25.6 11.469-25.6 25.6 11.469 25.6 25.6 25.6zM230.4 140.8c-14.131 0-25.6 11.469-25.6 25.6s11.469 25.6 25.6 25.6 25.6-11.469 25.6-25.6-11.469-25.6-25.6-25.6zM640 243.2c-14.131 0-25.6 11.469-25.6 25.6s11.469 25.6 25.6 25.6 25.6-11.469 25.6-25.6-11.469-25.6-25.6-25.6z" />
<glyph unicode="&#xe909;" glyph-name="license2" d="M947.2 38.4h-870.4c-42.342 0-76.8 34.458-76.8 76.8v665.6c0 42.342 34.458 76.8 76.8 76.8h870.4c42.342 0 76.8-34.458 76.8-76.8v-665.6c0-42.342-34.458-76.8-76.8-76.8zM76.8 806.4c-14.131 0-25.6-11.469-25.6-25.6v-665.6c0-14.131 11.469-25.6 25.6-25.6h870.4c14.131 0 25.6 11.469 25.6 25.6v665.6c0 14.131-11.469 25.6-25.6 25.6h-870.4zM486.4 652.8h-307.2c-14.131 0-25.6 11.469-25.6 25.6s11.469 25.6 25.6 25.6h307.2c14.131 0 25.6-11.469 25.6-25.6s-11.469-25.6-25.6-25.6zM486.4 499.2h-307.2c-14.131 0-25.6 11.469-25.6 25.6s11.469 25.6 25.6 25.6h307.2c14.131 0 25.6-11.469 25.6-25.6s-11.469-25.6-25.6-25.6zM486.4 396.8h-307.2c-14.131 0-25.6 11.469-25.6 25.6s11.469 25.6 25.6 25.6h307.2c14.131 0 25.6-11.469 25.6-25.6s-11.469-25.6-25.6-25.6zM486.4 294.4h-307.2c-14.131 0-25.6 11.469-25.6 25.6s11.469 25.6 25.6 25.6h307.2c14.131 0 25.6-11.469 25.6-25.6s-11.469-25.6-25.6-25.6zM435.2 192h-256c-14.131 0-25.6 11.469-25.6 25.6s11.469 25.6 25.6 25.6h256c14.131 0 25.6-11.469 25.6-25.6s-11.469-25.6-25.6-25.6zM918.682 624.947l-41.626 30.259-15.923 48.947h-51.456l-41.626 30.259-41.626-30.259h-51.456l-15.923-48.947-41.626-30.259 15.923-48.947-15.923-48.947 41.626-30.259 6.758-20.787c-0.102-0.819-0.102-1.587-0.102-2.406v-256c0-10.342 6.246-19.712 15.821-23.654s20.582-1.792 27.904 5.53l58.675 58.675 58.675-58.675c4.915-4.915 11.418-7.526 18.125-7.475 3.277 0 6.605 0.614 9.779 1.946 9.574 3.942 15.821 13.312 15.821 23.654v256c0 0.819-0.051 1.638-0.102 2.406l6.758 20.787 41.626 30.259-15.923 48.947 15.923 48.947zM677.53 605.389l24.986 18.176 9.574 29.389h30.925l24.986 18.176 24.986-18.176h30.925l9.574-29.389 24.986-18.176-9.574-29.389 9.574-29.389-24.986-18.176-9.574-29.389h-30.925l-24.986-18.176-24.986 18.176h-30.925l-9.574 29.389-24.986 18.176 9.574 29.389-9.574 29.389zM786.125 312.525c-9.984 9.984-26.214 9.984-36.198 0l-33.075-33.075v168.448h9.574l41.626-30.259 41.626 30.259h9.574v-168.448l-33.075 33.075z" />
<glyph unicode="&#xe90a;" glyph-name="bookmark2" d="M793.6-64c-7.322 0-14.49 3.174-19.456 8.96l-287.744 335.718-287.744-335.718c-6.963-8.141-18.278-11.059-28.314-7.373s-16.742 13.312-16.742 24.013v921.6c0 14.131 11.469 25.6 25.6 25.6h614.4c14.131 0 25.6-11.469 25.6-25.6v-921.6c0-10.701-6.656-20.275-16.742-24.013-2.918-1.075-5.888-1.587-8.858-1.587zM486.4 345.6c7.475 0 14.592-3.277 19.456-8.96l262.144-305.869v826.778h-563.2v-826.778l262.144 305.869c4.864 5.683 11.981 8.96 19.456 8.96z" />
<glyph unicode="&#xe90b;" glyph-name="pencil5" d="M978.074 914.125c-28.774 28.774-67.021 44.595-107.674 44.595s-78.95-15.821-107.674-44.595l-499.2-499.2c-2.662-2.662-4.659-5.837-5.939-9.37l-102.4-281.6c-3.379-9.37-1.075-19.814 5.939-26.829 4.864-4.915 11.418-7.526 18.125-7.526 2.918 0 5.888 0.512 8.755 1.536l281.6 102.4c3.533 1.28 6.707 3.328 9.37 5.939l499.2 499.2c28.774 28.774 44.595 67.021 44.595 107.725s-15.821 78.95-44.595 107.725zM446.72 239.718l-224.717-81.715 81.715 224.717 413.082 413.082 143.002-143.002-413.082-413.082zM941.926 734.925l-45.926-45.875-143.002 143.002 45.926 45.875c19.098 19.098 44.493 29.594 71.475 29.594s52.378-10.496 71.526-29.594c19.098-19.098 29.594-44.493 29.594-71.475s-10.496-52.378-29.594-71.475zM896-64h-819.2c-42.342 0-76.8 34.458-76.8 76.8v819.2c0 42.342 34.458 76.8 76.8 76.8h512c14.131 0 25.6-11.469 25.6-25.6s-11.469-25.6-25.6-25.6h-512c-14.131 0-25.6-11.469-25.6-25.6v-819.2c0-14.131 11.469-25.6 25.6-25.6h819.2c14.131 0 25.6 11.469 25.6 25.6v512c0 14.131 11.469 25.6 25.6 25.6s25.6-11.469 25.6-25.6v-512c0-42.342-34.458-76.8-76.8-76.8z" />
<glyph unicode="&#xe90c;" glyph-name="star" d="M793.6-12.8c-4.198 0-8.397 1.024-12.237 3.123l-269.363 146.893-269.363-146.893c-8.602-4.71-19.098-4.045-27.085 1.638s-12.032 15.411-10.394 25.088l49.050 294.195-195.482 195.482c-6.758 6.758-9.216 16.794-6.298 25.907s10.701 15.872 20.173 17.459l294.349 49.050 122.163 244.326c4.352 8.653 13.21 14.131 22.886 14.131s18.586-5.478 22.886-14.131l122.163-244.326 294.349-49.050c9.472-1.587 17.254-8.294 20.173-17.459s0.512-19.149-6.298-25.907l-195.482-195.482 49.050-294.195c1.587-9.677-2.458-19.405-10.394-25.088-4.403-3.123-9.626-4.762-14.848-4.762zM512 192c4.198 0 8.448-1.024 12.237-3.123l235.469-128.41-42.547 255.334c-1.382 8.141 1.28 16.486 7.168 22.323l169.626 169.626-258.15 43.008c-8.090 1.331-15.002 6.502-18.688 13.824l-105.114 210.227-105.114-210.227c-3.686-7.322-10.598-12.442-18.688-13.824l-258.15-43.008 169.626-169.626c5.837-5.837 8.499-14.131 7.168-22.323l-42.547-255.334 235.469 128.41c3.84 2.099 8.038 3.123 12.237 3.123z" />
<glyph unicode="&#xe90d;" glyph-name="star-empty" d="M281.549 533.35c-12.288 0-23.142 8.858-25.242 21.402-2.304 13.926 7.117 27.136 21.043 29.44l89.549 14.899 19.763 39.526c6.298 12.646 21.709 17.766 34.355 11.469s17.766-21.709 11.469-34.355l-25.6-51.2c-3.686-7.322-10.598-12.442-18.688-13.824l-102.4-17.050c-1.434-0.256-2.867-0.358-4.25-0.358zM128 448c-6.554 0-13.107 2.509-18.125 7.475l-51.2 51.2c-6.758 6.758-9.216 16.794-6.298 25.907s10.701 15.872 20.173 17.459l102.4 17.050c13.978 2.304 27.136-7.117 29.44-21.043s-7.117-27.136-21.043-29.44l-53.35-8.909 16.026-16.026c9.984-9.984 9.984-26.214 0-36.198-5.018-5.018-11.571-7.475-18.125-7.475zM759.45 192c-12.288 0-23.142 8.858-25.242 21.402l-17.050 102.4c-1.382 8.141 1.28 16.486 7.168 22.323l51.2 51.2c9.984 9.984 26.214 9.984 36.198 0s9.984-26.214 0-36.198l-41.882-41.882 14.899-89.395c2.304-13.926-7.117-27.136-21.043-29.44-1.434-0.256-2.816-0.358-4.25-0.358zM793.6-12.8c-4.198 0-8.397 1.024-12.237 3.123l-153.6 83.763c-12.39 6.758-16.998 22.323-10.24 34.714s22.323 16.998 34.714 10.24l107.469-58.624-8.448 50.534c-2.304 13.926 7.117 27.136 21.043 29.44s27.136-7.117 29.44-21.043l17.050-102.4c1.587-9.677-2.458-19.405-10.394-25.088-4.403-3.123-9.626-4.762-14.848-4.762zM273.101 243.2c-1.382 0-2.816 0.102-4.25 0.358-13.926 2.304-23.347 15.514-21.043 29.44l6.349 38.195-41.882 41.882c-9.984 9.984-9.984 26.214 0 36.198s26.214 9.984 36.198 0l51.2-51.2c5.837-5.837 8.499-14.131 7.168-22.323l-8.55-51.2c-2.099-12.544-12.954-21.402-25.242-21.402zM230.4-12.8c-5.222 0-10.445 1.587-14.848 4.762-7.987 5.683-12.032 15.411-10.394 25.088l25.6 153.6c2.304 13.926 15.514 23.347 29.44 21.043s23.347-15.514 21.043-29.44l-16.947-101.734 56.269 30.669c12.39 6.758 27.955 2.202 34.714-10.189s2.202-27.955-10.24-34.714l-102.4-55.859c-3.84-2.099-8.038-3.123-12.237-3.123zM435.2 98.918c-9.062 0-17.869 4.813-22.477 13.363-6.758 12.39-2.202 27.955 10.24 34.714l76.8 41.882c7.629 4.147 16.896 4.147 24.525 0l25.6-13.978c12.39-6.758 16.998-22.323 10.24-34.714s-22.323-16.998-34.714-10.24l-13.363 7.27-64.563-35.226c-3.891-2.099-8.090-3.123-12.237-3.123zM896 448c-6.554 0-13.107 2.509-18.125 7.475-9.984 9.984-9.984 26.214 0 36.198l16.026 16.026-104.55 17.408c-13.926 2.304-23.347 15.514-21.043 29.44s15.514 23.347 29.44 21.043l153.6-25.6c9.472-1.587 17.254-8.294 20.173-17.459s0.512-19.149-6.298-25.907l-51.2-51.2c-5.018-5.018-11.571-7.526-18.125-7.526zM691.251 541.85c-1.382 0-2.816 0.102-4.25 0.358l-51.2 8.55c-8.090 1.331-15.002 6.502-18.688 13.824l-51.2 102.4c-6.298 12.646-1.178 28.006 11.469 34.355s28.006 1.178 34.355-11.469l45.363-90.726 38.349-6.4c13.926-2.304 23.347-15.514 21.043-29.44-2.099-12.493-12.954-21.402-25.242-21.402zM460.8 704c-3.84 0-7.731 0.87-11.418 2.714-12.646 6.298-17.766 21.709-11.469 34.355l51.2 102.4c4.352 8.653 13.21 14.131 22.886 14.131 0 0 0 0 0 0 9.677 0 18.586-5.478 22.886-14.131l25.6-51.2c6.298-12.646 1.178-28.006-11.469-34.355s-28.006-1.178-34.355 11.469l-2.714 5.427-28.314-56.627c-4.506-8.96-13.517-14.182-22.938-14.182z" />
<glyph unicode="&#xe90e;" glyph-name="lock" d="M742.4 550.4h-25.6v76.8c0 127.027-103.373 230.4-230.4 230.4s-230.4-103.373-230.4-230.4v-76.8h-25.6c-42.342 0-76.8-34.458-76.8-76.8v-409.6c0-42.342 34.458-76.8 76.8-76.8h512c42.342 0 76.8 34.458 76.8 76.8v409.6c0 42.342-34.458 76.8-76.8 76.8zM307.2 627.2c0 98.816 80.384 179.2 179.2 179.2s179.2-80.384 179.2-179.2v-76.8h-358.4v76.8zM768 64c0-14.131-11.469-25.6-25.6-25.6h-512c-14.131 0-25.6 11.469-25.6 25.6v409.6c0 14.131 11.469 25.6 25.6 25.6h512c14.131 0 25.6-11.469 25.6-25.6v-409.6z" />
</font>
</defs>
</svg>
